Resultados 1 al 3 de 3
  1. #1
    Moderator Avatar de Rober
    Fecha de ingreso
    May 2017
    Mensajes
    762
    País
    Argentina
    Temas
    7
    Gracias Agradeció  
    275
    Gracias Recibido 
    51
    Agradecido
    7 Veces en 7 Posts
    Estadísticas
    Puntos
    393,198,034
    Nivel
    383
    Actividad - Barras
    Lv. Percent
    38.04%
    Actividad diaria
    0%
    Actividad semanal
    0%
    Actividad Mensual
    12.08%
    Logros 750 Comentarios! Destacado 50 Comentarios!
    Poder de reputación
    193763

    BDRIP To All the Boys I've Loved Before [2018][Web-dl][1080p]






    Título original
    To All the Boys I've Loved Before
    Año
    2018
    Duración
    99 min.
    País
    Estados Unidos Estados Unidos
    Dirección
    Susan Johnson
    Guion
    Sofia Alvarez, Annie Neal (Novela: Jenny Han)
    Fotografía
    Michael Fimognari
    Reparto
    Lana Condor, Noah Centineo, Janel Parrish, Israel Broussard, Andrew Bachelor, Anna Cathcart, John Corbett, Emilija Baranac, Christian Michael Cooper, Madeleine Arthur, Trezzo Mahoro, Jeb Beach, Kelcey Mawema, June B. Wilde, Joey Pacheco, Hunter Dillon
    Productora
    Overbrook Entertainment / Awesomeness Films. Distribuida por Netflix
    Género
    Drama. Romance | Drama romántico. Adolescencia. Comedia juvenil




    La vida amorosa de Lara Jean se descontrola cuando las cartas secretas que ha escrito a sus enamorados llegan misteriosamente a manos de sus destinatarios.




    Video
    ID : 1
    Format : AVC
    Format/Info : Advanced Video Codec
    Format profile : High@L3.1
    Format settings : CABAC / 5 Ref Frames
    Format settings, CABAC : Yes
    Format settings, ReFrames : 5 frames
    Codec ID : avc1
    Codec ID/Info : Advanced Video Coding
    Duration : 1 h 39 min
    Bit rate : 1 280 kb/s
    Width : 1 920 pixels
    Height : 1 080 pixels
    Display aspect ratio : 16:9
    Frame rate mode : Constant
    Frame rate : 23.976 (24000/1001) FPS
    Color space : YUV
    Chroma subsampling : 4:2:0
    Bit depth : 8 bits
    Scan type : Progressive
    Bits/(Pixel*Frame) : 0.026
    Stream size : 901 MiB (91%)
    Writing library : x264 core 148 r2795 aaa9aa8
    Encoding settings : cabac=1 / ref=5 / deblock=1:0:0 / analyse=0x3:0x113 / me=hex / subme=7 / psy=1 / psy_rd=1.00:0.00 / mixed_ref=1 / me_range=16 / chroma_me=1 / trellis=1 / 8x8dct=1 / cqm=0 / deadzone=21,11 / fast_pskip=1 / chroma_qp_offset=-2 / threads=8 / lookahead_threads=8 / sliced_threads=1 / slices=8 / nr=0 / decimate=1 / interlaced=0 / bluray_compat=0 / constrained_intra=0 / bframes=0 / weightp=2 / keyint=250 / keyint_min=23 / scenecut=40 / intra_refresh=0 / rc=abr / mbtree=0 / bitrate=1280 / ratetol=1.0 / qcomp=0.60 / qpmin=0 / qpmax=69 / qpstep=4 / ip_ratio=1.40 / aq=1:1.00
    Codec configuration box : avcC

    Audio
    ID : 2
    Format : AAC
    Format/Info : Advanced Audio Codec
    Format profile : LC
    Codec ID : mp4a-40-2
    Duration : 1 h 39 min
    Duration_LastFrame : -11 ms
    Bit rate mode : Constant
    Bit rate : 127 kb/s
    Channel(s) : 2 channels
    Channel positions : Front: L R
    Sampling rate : 48.0 kHz
    Frame rate : 46.875 FPS (1024 SPF)
    Compression mode : Lossy
    Stream size : 91.1 MiB (9%)
    Language : English
    Default : Yes
    Alternate group : 1

    Subtitles: SPANISH (SRT)







    Contenido oculto: responder para ver el contenido.




    Código:
    Sin Pass
    Última edición por Rober; 04-14-2019 a las 02:17 PM

  2. El siguiente usuario dice gracias a Rober por el aporte a mundopirata:

    FabianJoel  (04-14-2019)

  3. #2
    Uploader Ultimate Avatar de FabianJoel
    Fecha de ingreso
    Aug 2018
    Mensajes
    822
    País
    Ecuador
    Temas
    494
    Gracias Agradeció  
    205
    Gracias Recibido 
    2,760
    Agradecido
    468 Veces en 468 Posts
    Estadísticas
    Puntos
    2,932,522,487
    Nivel
    464
    Actividad - Barras
    Lv. Percent
    72.51%
    Actividad diaria
    126%
    Actividad semanal
    19.63%
    Actividad Mensual
    408.18%
    Logros 800 Comentarios! Por llegar a 900000000 puntos Destacado 50 Comentarios!
    Por compartir 450 Temas! Por compartir 400 Temas! Por compartir 350 Temas! Por compartir 300 Temas! Por compartir 250 Temas! Por compartir 200 Temas! Por compartir 150 Temas! Por compartir 100 Temas! Por compartir 30 Temas! Por compartir 50 Temas!
    Poder de reputación
    1389811
    muy bien rober!! muchas gracias por compartir...

  4. #3
    Moderator Avatar de Rober
    Fecha de ingreso
    May 2017
    Mensajes
    762
    País
    Argentina
    Temas
    7
    Gracias Agradeció  
    275
    Gracias Recibido 
    51
    Agradecido
    7 Veces en 7 Posts
    Estadísticas
    Puntos
    393,198,034
    Nivel
    383
    Actividad - Barras
    Lv. Percent
    38.04%
    Actividad diaria
    0%
    Actividad semanal
    0%
    Actividad Mensual
    12.08%
    Logros 750 Comentarios! Destacado 50 Comentarios!
    Poder de reputación
    193763
    Cita Iniciado por FabianJoel Ver mensaje
    muy bien rober!! muchas gracias por compartir...
    jajaja Gracias Fabi..que la disfrutes...

Permisos de publicación

  • No puedes crear nuevos temas
  • No puedes responder temas
  • No puedes subir archivos adjuntos
  • No puedes editar tus mensajes
  •