Resultados 1 al 2 de 2
  1. #1
    Uploader Avatar de bototo
    Fecha de ingreso
    May 2017
    Mensajes
    126
    País
    Chile
    Temas
    37
    Total de contribuciones para

    bototo      $ 0.00
    Gracias Agradeció  
    0
    Gracias Recibido 
    6
    Agradecido
    5 Veces en 5 Posts
    Poder de reputación
    4383

    BDRIP Thor Ragnarok [2017][BD-Rip][Latino][3840p]






    Título original: Thor: Ragnarok
    Año: 2017
    Duración: 130 min.
    País: Estados Unidos
    Dirección: Taika Waititi
    Guion: Eric Pearson, Craig Kyle, Christopher Yost (Cómic: Stan Lee, Larry Lieber, Jack Kirby)
    Música: Mark Mothersbaugh
    Fotografía: Javier Aguirresarobe
    Reparto
    Chris Hemsworth, Tom Hiddleston, Cate Blanchett, Tessa Thompson, Mark Ruffalo, Idris Elba, Karl Urban, Jeff Goldblum, Anthony Hopkins, Benedict Cumberbatch, Rachel House, Sam Neill, Ray Stevenson, Tadanobu Asano, Stan Lee, Rob Mayes, Rachel House, Luke Hemsworth, Charlotte Nicdao, Matt Damon, Zachary Levi

    Productora: Marvel Knights / Marvel Studios / Walt Disney Pictures
    Género: Fantástico. Acción. Aventuras. Comedia | Superhéroes. Cómic. Marvel Comics. Secuela.



    Thor está preso al otro lado del universo sin su poderoso martillo y se enfrenta a una carrera contra el tiempo. Su objetivo es volver a Asgard y parar el Ragnarok porque significaría la destrucción de su planeta natal y el fin de la civilización Asgardiana a manos de una todopoderosa y nueva amenaza, la implacable Hela. Pero, primero deberá sobrevivir a una competición letal de gladiadores que lo enfrentará a su aliado y compañero en los Vengadores, ¡el Increíble Hulk!.




    Complete name : THOR RAGNAROK (2017) 4K UHD [HDR] LATINO.mkv
    Format : Matroska
    Format version : Version 2
    File size : 12.9 GiB
    Duration : 2 h 10 min
    Overall bit rate : 14.1 Mb/s
    Movie name : THOR RAGNAROK (2017) 4K UHD [HDR] LATINO
    Encoded date : UTC 2018-06-08 16:24:42
    Writing application : mkvmerge v5.6.0 ('Kenya Kane') built on May 27 2012 16:44:04
    Writing library : libebml v1.2.3 + libmatroska v1.3.0

    Video
    ID : 1
    Format : HEVC
    Format/Info : High Efficiency Video Coding
    Format profile : Main 10@L5.1@High
    Codec ID : V_MPEGH/ISO/HEVC
    Duration : 2 h 10 min
    Bit rate : 12.6 Mb/s
    Width : 3 840 pixels
    Height : 1 608 pixels
    Display aspect ratio : 2.40:1
    Frame rate mode : Constant
    Frame rate : 23.976 (24000/1001) FPS
    Color space : YUV
    Chroma subsampling : 4:2:0 (Type 2)
    Bit depth : 10 bits
    Bits/(Pixel*Frame) : 0.085
    Stream size : 11.4 GiB (89%)
    Title : THOR RAGNAROK (2017) 4K UHD [HDR] LATINO
    Default : Yes
    Forced : No

    Audio #1
    ID : 2
    Format : AC-3
    Format/Info : Audio Coding 3
    Format settings, Endianness : Big
    Muxing mode : Header stripping
    Codec ID : A_AC3
    Duration : 2 h 10 min
    Bit rate mode : Constant
    Bit rate : 640 kb/s
    Channel(s) : 6 channels
    Channel positions : Front: L C R, Side: L R, LFE
    Sampling rate : 48.0 kHz
    Frame rate : 31.250 FPS (1536 spf)
    Bit depth : 16 bits
    Compression mode : Lossy
    Stream size : 597 MiB (5%)
    Title : Latino
    Language : Spanish
    Service kind : Complete Main
    Default : Yes
    Forced : No

    Audio #2
    ID : 3
    Format : AC-3
    Format/Info : Audio Coding 3
    Format settings, Endianness : Big
    Muxing mode : Header stripping
    Codec ID : A_AC3
    Duration : 2 h 10 min
    Bit rate mode : Constant
    Bit rate : 640 kb/s
    Channel(s) : 6 channels
    Channel positions : Front: L C R, Side: L R, LFE
    Sampling rate : 48.0 kHz
    Frame rate : 31.250 FPS (1536 spf)
    Bit depth : 16 bits
    Compression mode : Lossy
    Delay relative to video : 31 ms
    Stream size : 597 MiB (5%)
    Title : English AC3
    Language : English
    Service kind : Complete Main
    Default : No
    Forced : No

    Text #1
    ID : 4
    Format : UTF-8
    Codec ID : S_TEXT/UTF8
    Language : Español Forzado
    Default : Yes
    Forced : Yes

    Text #2
    ID : 5
    Format : UTF-8
    Codec ID : S_TEXT/UTF8
    Language : Español
    Default : No
    Forced : No










    Contenido oculto: responder para ver el contenido.




    Código:
    aportefreebototo
    Última edición por bototo ; 06-11-2018 a las 10:56 PM

  2. #2
    Recluta Avatar de johncardenas
    Fecha de ingreso
    May 2017
    Mensajes
    199
    País
    Colombia
    Temas
    0
    Total de contribuciones para

    johncardenas     $ 0.00
    Gracias Agradeció  
    0
    Gracias Recibido 
    0
    Agradecido
    0 Veces en 0 Posts
    Poder de reputación
    618
    muchas gracias, ensayare con esta en 4k a ver como me va-

Etiquetas para este tema

Permisos de publicación

  • No puedes crear nuevos temas
  • No puedes responder temas
  • No puedes subir archivos adjuntos
  • No puedes editar tus mensajes
  •